<?xml version="1.0" standalone="no"?>
<!DOCTYPE svg PUBLIC "-//W3C//DTD SVG 1.1//EN" "http://www.w3.org/Graphics/SVG/1.1/DTD/svg11.dtd">
<svg xmlns="http://www.w3.org/2000/svg">
<metadata>Copyright (C) 2025 by original authors @ fontello.com</metadata>
<defs>
<font id="ttciconpack" horiz-adv-x="1000" >
<font-face font-family="ttciconpack" font-weight="400" font-stretch="normal" units-per-em="1000" ascent="850" descent="-150" />
<missing-glyph horiz-adv-x="1000" />
<glyph glyph-name="excellence" unicode="&#xe800;" d="M496 179c-9-58-125-88-125-88l78-47-32-61c0 0 140 16 140 77 0 9-3 16-8 23-6 6-15 8-23 8m435 88c9-58 125-88 125-88l-77-47 31-61c0 0-140 16-140 77 0 9 3 16 9 23 5 6 14 8 22 8m-202 93c155 0 201-93 201-93l53 148c6 14 0 30-14 37-75 41-158 63-242 64-84 0-167-23-241-64-13-7-19-23-15-37l53-148c3 0 49 93 205 93z m-8 499c5 7 10 7 15 0l40-79h93c8 0 10-4 2-8l-80-53 42-110c3-9 0-10-7-6l-97 69-96-69c-7-4-10-3-7 6l41 110-81 53c-7 4-6 8 3 8h92l40 79z m-248-109c4 7 10 7 13 0l30-63h57c8 0 10-4 4-11l-48-50 20-70c2-9-2-11-9-7l-60 37-60-37c-7-4-11-2-9 7l20 70-50 50c-5 6-4 11 5 11h57l30 63z m497 0c4 7 10 7 13 0l30-63h57c9 0 10-4 4-11l-48-50 20-70c3-9-2-11-9-7l-58 37-60-37c-8-4-12-2-9 7l19 70-50 50c-6 6-5 11 4 11h57l30 63z" horiz-adv-x="1457" />

<glyph glyph-name="stewardship" unicode="&#xe801;" d="M391-20l10 114h49v67c0 53-43 96-96 96-53 0-95-43-95-96v-67h48l10-114h74z m-38 307c37 0 67 30 67 67 0 37-30 67-67 67s-67-31-67-68c0-36 30-66 67-66z m117-37l130 431c1 8 7 12 16 12s13-4 15-12l150-490c0-27-22-50-50-50h-232m118 50c0 33 13 66 39 86 24 22 57 33 90 27m-259 2c33 4 66-6 90-27 24-22 39-55 39-86m1 146c0 22 10 45 29 61s41 23 65 19m-190 2c23 5 49-4 68-18 18-16 28-39 28-63m362-99c0 52 32 98 82 115m-164 50c46 0 83-36 83-83m-1-344v492m-362-492v524" horiz-adv-x="1457" />

<glyph glyph-name="collaboration" unicode="&#xe802;" d="M781 204c35 0 63 29 63 63 0 34-28 63-63 63-34 0-62-29-62-63 0-34 27-63 62-63z m125 316c95-47 157-146 157-253m-407 253c-96-47-157-146-157-253m431-240c-91-57-206-57-297 0m443 94c4-7 4-15 0-22-5-8-12-12-20-12h-105c-8 0-15 4-20 12-4 7-4 15 0 22l50 110c3 10 12 18 23 18 10 0 20-8 23-18l49-110z m-73-75c23 0 40 18 40 40m-40 87v-167m0 115c-16 0-29 13-29 29m-191 480c21 0 40 17 40 40 0 21-17 40-40 40-22 0-40-17-40-40 0-23 18-40 40-40z m50-64c0 27-23 50-50 50s-50-23-50-50v-43h23l5-72h43l6 72h23v43z m-342-527l0 80c0 20 18 18 38 18 20 0 37 2 37-18l0-80m-123 142v-131c0-7 6-13 13-13h147c7 0 13 6 13 13v131m-223-44l121 110c9 7 20 7 29 0l121-110m-153 73c0 3 2 4 5 4h18c3 0 5-1 5-4v-19c0-2-2-4-5-4h-18c-3 0-5 2-5 4v19z" horiz-adv-x="1457" />

<glyph glyph-name="community" unicode="&#xe803;" d="M617 409c-51 0-93-42-93-93v-77h47l16-140h62l15 140h47v77c-1 51-42 93-94 93z m0 31c34 0 62 27 62 61 0 35-28 62-62 62-34 0-61-27-61-62-2-34 27-61 61-61z m-224-63c51 0 93-41 93-93v-77h-47l-16-108h-62l-14 108h-47v77c0 52 41 93 93 93z m0 32c34 0 61 27 61 61 0 34-27 61-61 61-34 0-62-27-62-61 0-33 28-61 62-61z m671 31c39 0 70 31 70 70 0 39-31 70-70 70-38 0-70-31-70-70 0-39 32-70 70-70z m0-31c-51 0-93-42-93-93v-77h48l15-140h62l15 140h46v77c0 51-41 93-93 93z m-224 20c37 0 67 32 67 74 0 41-30 74-67 74-37 0-67-33-67-74 0-40 30-74 67-74z m86-122c0 53-39 94-86 94s-86-42-86-94v-81h39l10-135h73l10 135h38v81z" horiz-adv-x="1457" />

<glyph glyph-name="well-being" unicode="&#xe804;" d="M620 224v75c0 5 3 10 7 12 4 3 10 5 14 2l198-70v-264l-208 74c-5 3-10 8-10 14v70m433 87v75c0 5-3 10-7 12-4 3-10 5-14 2l-197-70v-264l207 74c6 3 10 8 10 14v70m-216 307c43 0 77 35 77 77s-34 78-77 78c-43 0-77-35-77-78s34-77 77-77z m-201-310c-26 0-47 22-47 47 0 26 21 48 47 48h31c9 0 16-8 16-16v-63c0-9-7-16-16-16h-31z m403 0c25 0 47 22 47 47 0 26-22 48-47 48h-32c-8 0-16-8-16-16v-63c0-9 8-16 16-16h32z m-202 310c43 0 77 35 77 77s-34 78-77 78c-43 0-77-35-77-78s34-77 77-77z m142-151l-3 11c-7 45-46 77-92 77h-93c-45 0-84-32-91-77l-3-11m-46 276c0 17-14 31-31 31h-63v61c0 18-14 32-31 32h-32c-17 0-31-14-31-32v-61h-62c-17 0-31-14-31-31v-32c0-17 14-31 31-31h62v-62c0-17 14-31 31-31h32c17 0 31 14 31 31v63h62c17 0 31 14 31 32v30z" horiz-adv-x="1457" />

<glyph glyph-name="enviroment" unicode="&#xe805;" d="M370 241c0 9 7 16 16 16h93c8 0 15-7 15-16v-218c0-9-7-16-15-16h-93c-9 0-16 7-16 16v218z m126-187c334-111 211-113 591 77-21 29-58 42-93 32l-138-46m-360 109h93c52-2 102-25 140-63h92c13 3 26-3 32-14 7-10 7-25 0-35-7-10-20-15-32-14h-171m-81 231c-62 122-15 269 105 332 120 64 267 20 335-97s27-267-90-336m55 381c-5-32-25-62-54-81-43 11-87-21-76-21 12 0 22-43 22-43 11-12 33 0 33 0 27-27-43-76-43-87 0-12 27-16 11-33-8-10-20-17-33-22 0-54-54-54-64-54-11 0-33 43-33 54 0 12 12 22 12 33 0 10-22 33-22 33 0 43-33 33-66 33-32 0-32 43-32 43s0 75 54 87c54 11 54-12 54-12 22-21 64 0 87 0 0 0 12 76-11 65-22-12-42-3-43 21-3 34 94 54 94 54" horiz-adv-x="1457" />

<glyph glyph-name="birds" unicode="&#xe806;" d="M1087 243c27 0 49-22 49-49 0-115-166-210-372-210s-371 95-371 210c0 27 21 49 48 49h646z m-626-172c105 5 208 30 302 75-94-43-196-69-302-75m576-18c-56 11-108 30-160 54 52-24 104-43 160-54m-386 488c5 0 9-2 9-8m-17 1c0 5 3 9 8 9m0-17c-4 0-8 3-8 8m16 0c0-4-3-8-9-8m114 137l-40-86 89 22m241-18l-30-78 79 11m-162-53c5 0 9-2 9-8m-17 0c0 4 3 8 8 8m0-17c-4 0-8 3-8 9m17 0c0-4-3-9-9-9m-215-137c-12 30-29 56-52 77 55 26 83 86 70 146s-65 100-125 100-113-41-126-100c-13-59 16-119 70-146-23-21-40-48-52-77m515 0c-12 26-30 49-36 62 37 21 56 67 44 108-11 43-50 72-93 72-44 0-81-29-92-72s7-87 44-108c-6-13-24-36-36-62" horiz-adv-x="1457" />

<glyph glyph-name="fish" unicode="&#xe807;" d="M1101 603c-81-17-132 64-132 64l0 0c-25-41-69-66-117-67-45 1-86 27-107 67l0 0c-31-40-77-64-127-67-47 3-91 27-117 67l0 0c0 0-65-82-144-65m615-412c0-23-79-116-193-116-73 2-142 29-196 77v77c54 48 123 75 196 78 113 0 193-94 193-116z m-389-39l-75-30c-5-2-10-1-15 2-4 3-7 8-7 13v107c0 6 3 11 7 14 5 3 10 3 15 1l75-30m229-152c0 0-43-43-171-43m-17 302c51 25 113 13 150-30m76-87c4 0 8-3 8-8m-16 0c0 4 3 8 8 8m0-16c-5 0-8 4-8 8m16 0c0-4-4-8-8-8m129 138c5 0 8-3 8-8m-16 0c0 5 4 9 8 9m0-17c-4 0-8 4-8 8m16 0c0-4-3-8-8-8m41 81c27 0 48 22 48 49 0 27-21 48-48 48-27 0-49-21-49-48 0-27 22-49 49-49z" horiz-adv-x="1457" />

<glyph glyph-name="mamals" unicode="&#xe808;" d="M734-19c3-2 6-2 9-2 3 1 4 4 4 7v93c0 27-10 52-27 74l-47 56c-4 5-13 10-20 10s-16-3-20-10l-47-56c-17-22-27-47-27-74v-93c0-3 1-6 4-7s6 0 8 1l35 34c30-14 64-14 94 0l34-33z m-41 80c-4 0-7 3-7 8m15 1c0-4-2-7-7-7m-1 16c4 0 7-3 7-8m-14-1c0 4 3 7 7 7m-79-16c-4 0-7 3-7 8m16 1c0-4-3-7-7-7m-2 16c5 0 7-3 7-8m-14-1c0 4 3 7 7 7m-80 103c-28 44-41 97-38 150 0 157 157 300 157 300v-229c0-52-19-102-53-142m173-79c28 44 41 97 38 150 0 157-157 300-157 300v-229c0-52 19-102 53-142m-267 434h520m-250-124c36 30 47 81 29 124m-142-126c-37 30-50 82-30 126" horiz-adv-x="1457" />

<glyph glyph-name="amphibians" unicode="&#xe809;" d="M419 671c-119 0-239-98-239-190s109-142 214-142h572c58 4 110-38 118-96 0-66-53-119-118-119h-95m215 119h-239c-66 0-118-53-118-119s52-118 118-118h96c184 0 333 150 333 333s-119 261-333 308c-63 13-127 20-192 23m-237-23l143 47m-143-118h143m-143-72l143-47m-297 96c7 0 11-6 11-12m-24-1c0 7 6 11 12 11m1-22c-7 0-11 5-11 11m22 0c0-7-5-11-11-11m179-190c0-96-72-96-72-96h-96m96 0l-47-72" horiz-adv-x="1457" />

<glyph glyph-name="plants" unicode="&#xe80a;" d="M729-7v517m0 0c0 0 62 40 62 101-3 37-23 71-53 93-5 4-13 4-19 0-30-22-49-56-52-93-1-61 62-101 62-101z m0-112c0 0 28 125 189 125 6 1 11-3 14-8 3-5 2-12-1-17-47-64-123-101-202-100l0 0z m0 0c0 0-28 125-190 125-6 1-11-3-14-8-3-5-2-12 1-17 48-64 123-101 203-100z m0-155c0 0 56 134 236 99 5-1 10-5 12-11 2-5 0-12-4-16-65-62-156-90-244-72l0 0z m0 0c0 0-57 134-236 99-6-1-11-5-13-11-1-5 0-12 5-16 64-62 155-90 244-72z m0-140c0 0-86 117-253 41-6-2-9-7-10-13 0-6 3-12 8-15 78-46 173-51 255-13z m0 0c0 0 85 117 252 41 6-2 9-7 10-13 0-6-3-12-8-15-78-46-173-51-254-13l0 0z" horiz-adv-x="1457" />

<glyph glyph-name="reptiels" unicode="&#xe80b;" d="M534 501c0 0-14-27-68-27-17 0-42 15-86 9-29-3-51-9-51-9s-28 42-28 69c0 37 78 74 103 83 105 40 132 80 152 80 8 0 63-13 77-69 7-26-14-51-14-83m17 60c0 0 101 22 228 13 126-10 263-90 263-288v-150c0-113-103-196-220-196-118 0-164 63-164 151 0 70 63 125 137 125 60 0 96-40 96-96 0-46-35-83-83-83-39 0-69 27-69 69m-193 261h-67c0 0-101 0-153 0-54 0-54 54-54 54m253 13h41c42 0 68-43 49-80l-43-86m263 166h-41c-42 0-68-43-49-80l43-86" horiz-adv-x="1457" />

<glyph glyph-name="trees" unicode="&#xe80c;" d="M531 363l98 321c1 6 5 9 11 9s10-3 11-9l112-365c0-20-17-38-37-38h-145m60 38c0 24 10 48 29 64s43 24 67 20m-193 1c25 3 49-4 67-20 19-15 29-40 29-64m1 109c0 17 8 34 22 45s31 17 48 15m-141 1c17 3 36-3 50-14 14-12 21-29 21-47m426 77c-13 74-78 131-157 131-89 0-159-71-159-158s72-159 160-159c42 0 79 16 108 41m-108-5c0 38 25 73 62 85m-123 38c34 0 61-28 61-62m0-257v367m-270-367v391m-275-412c-23-19-55-25-82-15-28 10-48 35-53 65l-1 7c-29 11-47 40-47 70 0 30 17 58 46 71l1 6c0 33 26 58 59 58l5 6c0 43 35 77 77 77 43 0 78-34 78-77l5-6c33 0 59-25 59-58l7-10c26-14 41-42 40-72s-20-55-47-67l-2-7c-4-28-24-54-52-64s-59-6-82 14l-11 2z m5 192v-352m0 222c52 0 95 43 95 95m-95-47c-38 0-70 31-70 70m928-82c4 0 8 3 10 6 1 4 1 8 0 11l-82 125h26c4 0 8 2 10 5 1 5 1 9 0 12l-73 108c-3 3-6 6-10 6-4 0-7-1-10-6l-73-108c-3-3-3-9 0-12 2-4 6-5 10-5h26l-82-123c-2-3-2-9 0-12 2-4 6-5 10-5h49l-91-123c-3-3-3-9-2-13s6-7 10-7h306c4 0 8 3 10 7 1 4 1 8-2 13l-91 123 49-2 0 0z m-119-141v-117" horiz-adv-x="1457" />

<glyph glyph-name="behind-the-scenes-tour" unicode="&#xe80d;" d="M505 5v209m0 0c16 0 30 11 30 26 0 14-13 26-30 26-16 0-30-12-30-26 0-15 14-26 30-26z m447-209v209m0 0c17 0 30 11 30 26 0 14-13 26-30 26-16 0-30-12-30-26 0-15 14-26 30-26z m-429 5c51-53 126-84 206-84 79 0 154 31 205 84m-548-65c39 14 73 37 101 65m584-65c-39 14-73 37-101 65m-241 304c39 0 71 32 71 72 0 40-32 72-71 72-40 0-72-32-72-72 0-40 32-72 72-72z m91-117c0 50-41 91-91 91s-92-41-92-91v-79h41l11-130h79l10 130h42v79z" horiz-adv-x="1457" />

<glyph glyph-name="insider-info" unicode="&#xe80e;" d="M435 303v84c0 9 4 19 12 24 8 6 18 8 27 6l240-67v-357l-256 71c-14 4-23 16-23 30v116m279-217l257 71c13 4 23 16 23 30v116m0 93v84c0 9-5 19-12 24-8 6-18 8-28 6l-240-67m0 155c56 0 101 45 101 101 0 56-45 101-101 101-55 0-101-45-101-101 0-56 46-101 101-101z m-132-118c32 41 80 67 132 72 52-5 100-31 132-72m55-77l-114-35c-6-2-11-8-11-14v-46c0-5 3-9 7-12 4-3 9-4 13-3l105 32m-466-22c-26 0-47 21-47 47 0 26 21 46 47 46h31c8 0 15-7 15-15v-62c0-9-7-16-15-16h-31z m559 0c26 0 46 21 46 47 0 26-20 46-46 46h-31c-9 0-16-7-16-15v-62c0-9 7-16 16-16h31z" horiz-adv-x="1457" />

<glyph glyph-name="flash-sales" unicode="&#xe80f;" d="M1025 48v-15c0-17-14-31-31-31h-528c-17 0-31 14-31 31v15m599 620c-6 10-16 17-28 17h-552c-11 0-22-7-27-17l-54-107h714l-53 107z m53-138c1-38-21-72-56-86-35-14-74-5-99 23-21-34-56-57-96-61-40-4-79 12-106 42-27-30-66-46-106-42-40 4-75 27-96 61-25-28-65-37-99-23-35 14-57 48-56 86v31h714v-31z m-559-63v94l31 124m171-238v114 124m202-218v94l-31 124m-466-243v-68m590 67v-67m-435-248v140c0 25 21 46 47 46 26 0 47-21 47-46v-140m-94 93h93m311-93h-62c-17 0-31 14-31 31v124c0 17 14 31 31 31h62m-93-93h62m-217 93v-155c0-17 13-31 31-31h62m-311 186h-53c-17 0-33-11-39-28-5-18 2-36 17-46l57-38c15-10 22-28 16-45-5-17-21-29-39-29h-52" horiz-adv-x="1457" />

<glyph glyph-name="member-decal" unicode="&#xe810;" d="M729-7h-1c-146 0-266 119-266 266v182c0 147 120 266 266 266 147 0 267-119 267-266v-182c0-147-120-266-266-266z m0 700c-139 0-252-113-252-252v-182c0-139 113-252 251-252h1c138 0 251 113 251 252v182c0 139-113 252-251 252z m160-226v53l-160 75-160-75v-53l135 63v-57l-135-63v-53l135 63v-75h-34c-49 0-88-40-88-88 0-49 39-88 88-88h34v-49l24-16 24 16v49h57c36 0 64 27 64 63h-48c0-14-11-16-16-16h-57v81h57c9 0 16-9 16-20h48c0 37-29 67-64 67h-57v76l136-63v53l-136 63v57l137-63z m-185-251h-34c-23 0-41 18-41 41 0 22 18 40 41 40h34v-81z" horiz-adv-x="1457" />

<glyph glyph-name="early-access-&amp;-special-discounts" unicode="&#xe811;" d="M417 676c0 17 14 31 32 31h531c17 0 31-14 31-31v-196c0-200-107-384-281-483-10-6-22-6-31 0-174 99-282 283-282 483v196l0 0z m1-63h593m-278-109l40-78h78c8 0 15-5 18-12s1-16-5-22l-67-70 37-86c3-9 1-18-5-24-7-6-17-6-24-2l-91 51-90-51c-8-4-17-3-24 2-7 6-9 15-5 24l37 86-68 71c-6 5-8 13-5 21 3 7 11 12 19 12h78l40 79c4 6 11 11 18 11 8 0 15-5 19-12z" horiz-adv-x="1457" />

<glyph glyph-name="speical-recognition" unicode="&#xe812;" d="M737 433c33 0 60 27 60 60s-27 61-60 61c-33 0-60-27-60-61s27-60 60-60z m77-99c0 42-35 77-77 77-42 0-77-35-77-77v-66h35l9-110h66l9 110h35v66z m-375-233c5 0 9-4 9-9m-17 0c0 5 4 9 8 9m0-17c-4 0-8 4-8 8m17 0c0-4-4-8-9-8m0 102c5 0 9-4 9-9m-17 0c0 5 4 9 8 9m0-17c-4 0-8 4-8 9m17-1c0-4-4-8-9-8m0 102c5 0 9-4 9-9m-17 0c0 5 4 9 8 9m0-17c-4 0-8 4-8 9m17-1c0-4-4-8-9-8m0 102c5 0 9-4 9-9m-17 1c0 4 4 8 8 8m0-17c-4 0-8 4-8 9m17 0c0-5-4-9-9-9m0 102c5 0 9-4 9-9m-17 1c0 4 4 8 8 8m0-17c-4 0-8 4-8 9m17 0c0-5-4-9-9-9m85 17c5 0 9-4 9-9m-17 1c0 4 4 8 8 8m0-17c-4 0-8 4-8 9m17 0c0-5-4-9-9-9m426 17c-5 0-9-4-9-9m17 1c0 4-4 8-8 8m0-17c4 0 8 4 8 9m-17 0c0-5 4-9 9-9m-358 85c5 0 9-4 9-8m-17 0c0 4 4 8 9 8m-1-17c-4 0-8 4-8 9m17 0c0-5-4-9-9-9m34 102c5 0 9-4 9-8m-17 0c0 4 4 8 9 8m-1-17c-4 0-8 4-8 9m17 0c0-5-4-9-9-9m68 68c5 0 9-4 9-8m-17 0c0 4 4 8 9 8m-1-17c-4 0-8 4-8 9m17 0c0-5-4-9-9-9m86 17c4 0 8-4 8-8m-17 0c0 4 4 8 9 8m0-17c-5 0-9 4-9 9m17 0c0-5-4-9-9-9m256-187c4 0 8-4 8-9m-17 1c0 4 4 8 9 8m0-17c-5 0-9 4-9 9m17 0c0-5-4-9-8-9m0-85c-5 0-9 4-9 9m17 0c0-5-4-9-8-9m0 17c4 0 8-4 8-9m-17 1c0 4 4 8 9 8m0-102c-5 0-9 4-9 9m17-1c0-4-4-8-8-8m0 17c4 0 8-4 8-9m-17 0c0 5 4 9 9 9m0-102c-5 0-9 4-9 9m17-1c0-4-4-8-8-8m0 17c4 0 8-4 8-9m-17 0c0 5 4 9 9 9m0-102c-5 0-9 4-9 8m17 0c0-4-4-8-8-8m0 17c4 0 8-4 8-9m-17 0c0 5 4 9 9 9m-341-17c-4 0-8 4-8 8m17 0c0-4-4-8-9-8m0 17c5 0 9-4 9-9m-17 0c0 5 4 9 9 9m-86-17c-4 0-8 4-8 8m17 0c0-4-4-8-9-8m0 17c5 0 9-4 9-9m-17 0c0 5 4 9 9 9m-86-17c-4 0-8 4-8 8m17 0c0-4-4-8-9-8m0 17c5 0 9-4 9-9m-17 0c0 5 4 9 8 9m256-17c4 0 8 4 8 8m-17 0c0-4 4-8 9-8m0 17c-5 0-9-4-9-9m17 0c0 5-4 9-9 9m86-17c4 0 8 4 8 8m-17 0c0-4 4-8 9-8m0 17c-5 0-9-4-9-9m17 0c0 5-4 9-9 9m86-17c4 0 8 4 8 8m-17 0c0-4 4-8 9-8m0 17c-5 0-9-4-9-9m17 0c0 5-4 9-8 9m37 408c-16 0-30 12-34 27-20 103-111 177-216 177-105 0-196-74-216-177-4-16-18-27-34-27h-107c-19 0-34-15-34-34v-442c0-19 15-34 34-34h714c19 0 34 15 34 34v442c0 19-15 34-34 34h-107z m-105 0c-5 0-9-4-9-8m17 0c0 4-4 8-9 8m1-17c4 0 8 4 8 9m-17 0c0-5 4-9 9-9m-34 102c-5 0-9-4-9-8m17 0c0 4-4 8-9 8m1-17c4 0 8 4 8 9m-17 0c0-5 4-9 9-9" horiz-adv-x="1457" />

<glyph glyph-name="networking" unicode="&#xe813;" d="M729 267c33 0 60 27 60 61s-27 60-60 60c-34 0-61-27-61-60s27-61 61-61z m76-99c0 43-34 77-76 77s-77-34-77-77v-65h34l10-110h66l9 110h34v65z m-252 318v53h55m-66 105c18 0 33 14 33 31s-15 32-33 32c-18 0-33-14-33-31s15-32 33-32z m55-63h-110c-3 32 22 60 55 63 33-3 58-31 55-63l0 0z m318 63c18 0 33 14 33 31s-15 32-33 32c-18 0-33-14-33-31s15-32 33-32z m55-63h-110c-2 32 22 60 55 63 33-3 58-31 55-63l0 0z m-241 63c18 0 32 14 32 31s-14 32-32 32c-19 0-33-14-33-31s14-32 33-32z m54-63h-109c-3 32 21 60 55 63 33-3 57-31 54-63l0 0z m-230-42l109-106m242 53v53h-55m55 0l-109-106m-66 1v105m-44-32l44 32 44-32" horiz-adv-x="1457" />

<glyph glyph-name="ttc-gear" unicode="&#xe814;" d="M1081 473l-121 117c-29 28-68 43-108 43h-248c-40 0-78-16-107-43l-121-117c-3-3-5-7-5-11 0-4 2-8 5-11l72-72c6-6 15-6 21-1l89 69v-357c0-9 7-16 15-16h311c8 0 15 7 15 16v357l89-69c6-5 15-5 21 1l72 72c3 3 5 7 5 11-1 4-2 8-5 11z m-446 160c0-51 42-93 93-93 52 0 93 42 93 93m-93-413h0c-47 0-85 38-85 85v59c0 47 38 85 85 85 47 0 85-38 85-85v-59c0-47-38-85-85-85z m0 224c-44 0-80-36-80-80v-59c0-44 36-80 80-80h0c45 0 81 36 81 80v59c0 44-36 80-81 80z m51-72v17l-51 24-51-24v-17l43 20v-18l-43-20v-17l43 20v-24h-11c-15 0-28-13-28-28 0-16 13-29 28-29h11v-15l8-5 8 5v15h18c12 0 20 9 20 21h-15c0-5-4-5-5-5h-18v25h18c3 0 5-3 5-6h15c0 12-9 22-20 22h-18v24l43-21v17l-43 21v18l43-20z m-59-80h-11c-7 0-12 5-12 13 0 7 5 12 12 12h11v-25z" horiz-adv-x="1457" />

<glyph glyph-name="sponsor-a-project_2" unicode="&#xe815;" d="M812 136c-16-13-36-20-56-20-44 0-80 31-86 72l-1 7c-30 13-49 42-49 73-1 32 18 60 48 74l1 6c0 16 6 32 18 43 11 12 27 19 44 19l6 6c-1 28 14 54 40 69s56 14 81 0c26-15 41-41 40-69l6-6c17 0 33-7 44-19 12-11 18-27 18-43l7-9c28-15 44-44 42-74-1-30-20-57-49-70l-1-7c-6-41-42-72-86-72-20 0-40 7-55 19l-12 1z m5 170v-307m0 205c44 0 84 22 106 58m-106-29c-50 0-91 39-91 87m-91-184l-1-5c-3-25-26-44-52-44-13 0-25 4-34 12l-8 0c-10-8-22-12-34-12-27 0-49 19-53 44l-1 5c-18 8-30 25-30 45 0 19 11 37 30 45l0 4c0 10 4 19 11 26 7 7 17 11 27 12l4 3c0 13 5 25 14 35 10 9 22 14 36 14 5 0 10 0 15-2m-15-144v-175m-153 0h700m-772 249c111 0 202 91 202 202 0 112-91 202-202 202-112 0-202-90-202-202 0-111 90-202 202-202z m0 47c0 49 31 93 77 109m-155 47c43 0 78-35 78-78m0-380v520m910-258c-2 2-4 2-6 2h-102c-2 0-4 0-5-2-43-32-90-94-90-144 0-69 39-107 146-107 107 0 146 38 146 107 0 50-47 112-89 144z m-125 41h137m4 111c2 4 2 9-1 12-3 3-7 4-11 2l-41-17-11 26c-1 3-5 6-9 6-4 0-7-3-9-6l-10-27-41 18c-4 2-8 1-11-2s-3-8-1-12c11-19 19-41 23-63 1-5 5-9 10-9h79c5 0 9 4 10 9 4 22 12 44 23 63l0 0z m-63-218v20m29-20h-39c-13 0-23-9-26-21s4-24 16-29l40-16c12-5 19-17 16-29-2-13-13-21-25-21h-40m29-20v19" horiz-adv-x="1457" />

<glyph glyph-name="sponsor-a-project" unicode="&#xe816;" d="M1240 268c-1 2-3 2-6 2h-101c-3 0-5 0-6-2-42-32-90-94-90-144 0-69 39-107 146-107s146 38 146 107c0 50-47 112-89 144z m-125 41h137m4 111c2 4 2 9-1 12-3 3-7 4-11 2l-41-17-10 26c-2 3-5 6-9 6-4 0-8-3-9-6l-11-26-41 17c-4 2-8 1-11-2-3-3-3-8-1-12 11-19 19-41 23-63 1-5 5-9 10-9h79c5 0 9 4 10 9 4 22 12 44 23 63l0 0z m-63-218v20m29-20h-39c-13 0-23-9-26-21-2-12 4-24 16-29l40-16c12-5 19-17 16-29-2-13-13-21-25-21h-40m29-20v19m-370 64c-16-13-36-20-56-20-44 0-80 31-86 72l-1 7c-30 13-49 42-49 73-1 32 18 60 48 74l1 6c0 16 6 32 18 43 11 12 27 19 44 19l6 6c-1 28 14 54 40 69 25 14 56 14 81 0 26-15 41-41 40-69l6-6c17 0 33-7 44-19 12-11 18-27 18-43l7-9c28-15 44-44 42-74-1-30-20-57-49-70l-1-7c-6-41-42-72-86-72-20 0-40 7-55 19l-12 1z m6 170v-307m0 205c43 0 83 22 105 58m-105-29c-51 0-92 39-92 87m-91-184l-1-5c-3-25-26-44-52-44-13 0-25 4-34 12l-8 0c-9-8-22-12-34-12-27 0-49 19-53 44l0 5c-19 8-31 25-31 45 0 19 12 37 30 45l1 4c-1 10 3 19 10 26 8 7 17 11 28 12l3 3c0 13 5 25 15 35 9 9 22 14 35 14 5 0 10 0 15-2m-15-144v-175m-153 0h700m-772 249c111 0 202 91 202 202 0 112-91 202-202 202-112 0-202-90-202-202 0-111 90-202 202-202z m0 47c0 49 31 93 77 109m-155 47c43 0 78-35 78-78m0-380v520" horiz-adv-x="1457" />

<glyph glyph-name="sponsor-an-event_2" unicode="&#xe817;" d="M690 148h-248c-18 0-31 14-31 31v435c0 17 13 31 31 31h559c17 0 31-14 31-31v-202m-466 295v-155m310 155v-155m-465-62h621m-75-246c-1 1-3 2-5 2h-102c-2 0-4-1-6-2-42-32-89-95-89-144 0-70 39-107 146-107s146 37 146 107c0 49-47 111-90 144z m-124 41h136m4 111c2 3 2 8-1 11-3 3-7 4-11 2l-41-17-10 26c-2 4-5 6-9 6-4 0-8-2-9-6l-11-26-41 17c-3 2-8 1-11-2-3-3-3-8-1-11 11-20 19-41 24-64 0-5 4-8 9-8h79c5 0 10 3 10 8 4 22 12 44 23 64l0 0z m-63-218v19m30-19h-40c-13 0-23-9-26-22-2-12 5-24 16-29l40-16c12-5 19-17 16-29-2-12-13-21-25-21h-40m29-20v20" horiz-adv-x="1457" />

<glyph glyph-name="sponsor-an-event" unicode="&#xe818;" d="M886 241c-1 1-3 2-6 2h-101c-3 0-5-1-6-2-42-32-90-94-90-144 0-70 39-107 146-107s146 37 146 107c0 50-47 112-89 144z m-125 41h137m4 111c2 4 2 8-1 11s-7 4-11 3l-41-18-10 26c-2 4-5 6-9 6s-8-2-9-6l-11-26-41 18c-4 1-8 0-11-3s-3-7-1-11c11-20 19-41 23-63 1-5 5-9 10-9h79c5 0 9 4 10 9 4 22 12 43 23 63l0 0z m-63-218v19m29-19h-39c-13 0-23-9-26-21-2-12 5-25 16-29l40-16c12-5 19-17 16-30-2-12-13-21-25-21h-40m29-19v19m-220 88h-249c-17 0-31 14-31 31v435c0 17 14 31 31 31h559c18 0 31-14 31-31v-202m-465 295v-155m310 155v-155m-466-63h622" horiz-adv-x="1457" />

<glyph glyph-name="become-a-member" unicode="&#xe819;" d="M490 108c39 0 70 32 70 70 0 39-31 70-70 70-38 0-69-31-69-70 0-38 31-70 69-70z m140-139c-16 64-74 108-140 108-65 0-123-44-139-108m574 139c39 0 70 32 70 70 0 39-31 70-70 70-38 0-70-31-70-70 0-38 32-70 70-70z m-140-139c17 64 74 108 140 108 66 0 124-44 140-108m-357 171c38 0 70 31 70 69 0 39-32 70-70 70-39 0-70-31-70-70 0-38 31-69 70-69z m121-100c-26 43-72 68-121 68-50 0-96-25-122-68m-18 643l-46-47m-1 47l47-47m311 16l-47-47m0 47l47-47m155-77l-47-47m0 47l47-47m-606 93l-46-46m0 46l46-46m384-172c24 62 71 113 131 143m-328 137l12-6c70-35 118-102 128-180l0 0m-265 93l0 0c97-19 176-87 210-180l8-22" horiz-adv-x="1457" />

<glyph glyph-name="garden" unicode="&#xe81a;" d="M165 750c-13 0-15-28-15-50l0-100c0-102 100-153 200-150l0-400c-50 100-200 250-350 200 0 0 125-300 375-300s375 300 375 300c-150 50-300-100-350-200l0 400c100-3 200 48 200 150l0 100c0 22-2 50-15 50-10 0-21-11-35-25l-75-75-75 84c-8 9-12 16-25 16-13 0-17-7-25-16l-75-84-75 75c-14 14-25 25-35 25z" horiz-adv-x="750" />

<glyph glyph-name="adopt-the-trail" unicode="&#xe81b;" d="M795 506c-38-25-57-70 0-109 31-78 89-57 123-20 39 56 49 127 27 192-55-42-104-32-150-63z m-109 110c41-47 62-110-34-152-44-98-111-62-155-9s-62 193-23 267c72-61 162-47 212-106z m187-156c-94-47-141-172-141-172-32 124-100 236-195 323m-209-341c0 9 7 16 15 16h94c8 0 15-7 15-16v-217c0-9-7-16-15-16h-94c-8 0-15 7-15 16v217z m124-186c334-112 211-113 592 77-22 29-59 42-94 32l-138-46m-360 108h94c53-2 103-24 140-62h93c13 2 25-4 32-14 7-11 7-24 0-35-7-11-19-16-32-14h-171" horiz-adv-x="1457" />

<glyph glyph-name="one-time-donation" unicode="&#xe81c;" d="M689 327l234-335c3-5 10-8 16-7 6 1 11 6 12 12l26 105 104 25c6 2 11 7 12 13 1 6-1 12-7 15l-335 234m-106 45l133 21c6 1 11 6 12 13 1 6-2 13-8 16l-121 62 20 136c1 6-2 13-8 16-6 3-14 2-18-3l-96-96-120 61c-6 3-13 2-18-3-5-4-6-12-3-18l61-120-95-95c-5-5-6-12-3-18 3-6 9-9 16-9l135 20 62-121c3-6 10-9 17-8 6 1 12 6 13 13l21 133z" horiz-adv-x="1457" />

<glyph glyph-name="sponsor-the-trail" unicode="&#xe81d;" d="M744 276c-17-14-38-22-60-22-47 1-86 34-92 78l-1 8c-32 14-53 45-54 79 0 33 20 64 52 79l2 7c-1 17 6 34 19 46 12 13 29 20 47 20l7 7c-1 30 15 58 42 74s61 15 88 0c28-16 44-44 43-74l7-7c18 0 35-7 47-20 13-12 19-29 19-46l8-10c30-17 47-47 45-80-1-32-22-61-52-75l-2-8c-6-44-45-77-92-78-22 0-43 8-60 22l-13 0z m6 183l0-330m0 220c47 0 91 24 114 63m-114-32c-54 0-98 43-98 95m-98-199l-1-5c-4-27-28-48-57-48-13 0-26 5-37 13l-8 0c-10-8-23-13-37-13-28 0-52 21-56 48l-1 5c-20 8-33 27-33 48 0 21 12 40 32 49l1 4c0 11 4 21 11 29 8 7 19 12 30 12l4 4c0 14 5 27 15 37 10 10 24 15 38 16 6 0 11-1 17-3m-17-155l0-188m-164 0l754 0m-754-129l754 0m-2 700c-25 0-49-10-66-28-18-18-27-42-27-67-1-17 4-34 12-49l-23-49c-1-1 0-3 1-4 1-1 3-2 4-1l49 23c34-21 78-18 109 7 31 25 43 67 30 105-14 38-49 63-89 63l0 0z m16-62l-21 0c-7 0-12-5-14-12-1-6 3-13 9-15l21-9c6-2 10-9 9-15s-7-12-14-12h-21m16 63v7m0-78v8" horiz-adv-x="1457" />

<glyph glyph-name="wishlist" unicode="&#xe81e;" d="M901 588v103c0 5-3 10-7 13-4 3-9 4-14 2l-344-115c-7-2-11-8-11-14v-568c0-9 7-16 16-16h376c8 0 15 7 15 16v563c0 9-7 16-15 16h-16z m-157-103l32-85h62c7 0 13-3 15-9 3-6 1-13-4-18l-54-38 30-69c3-6 1-14-4-18-6-5-13-6-19-2l-73 41-73-41c-6-4-14-3-19 2-5 4-7 12-4 18l30 69-55 38c-4 5-6 11-4 17 3 6 9 10 15 10h63l32 85c3 6 9 9 15 9 6 0 12-3 15-9z m-94-336h157m-157-62h157m94 501h-371" horiz-adv-x="1457" />

<glyph glyph-name="volunteer" unicode="&#xe81f;" d="M918 621v-150m75 75h-150m88-173l14 6c65 25 122 88 122 158v85c0 10-6 20-15 24-43 16-89 24-135 25-46-1-91-9-134-25-9-4-16-14-16-24v-85c0-70 56-133 122-158l14-6c9-3 19-3 28 0z m-324-380l16 186h77v109c0 86-69 155-155 155-86 0-155-69-155-155v-109h77l16-186h124z m-62 497c60 0 109 48 109 108s-49 109-109 109-109-49-109-109 49-108 109-108z" horiz-adv-x="1457" />

<glyph glyph-name="tip-the-trail" unicode="&#xe820;" d="M1010 410c0-194-223-376-272-414-6-4-13-4-19 0-49 38-272 220-272 414 1 164 118 297 282 297s281-133 281-297z m-281-112c71 0 128 57 128 128 0 71-57 129-128 129-71 0-129-58-129-129 0-71 58-128 129-128z m0 77v-26m0 154v-25m-52-103h77c14 0 26 11 26 25 0 15-12 26-26 26h-51c-14 0-26 12-26 26 0 14 12 26 26 26h77" horiz-adv-x="1457" />

<glyph glyph-name="attend-an-event" unicode="&#xe821;" d="M1045 676v-63m30 31h-60m-512-282v-63m30 32h-60m512-220v-63m30 32h-61m-180 533v-63m30 32h-60m-362 125c0 0 301-267 693-314m-617 256v-195c0-6 3-11 8-14 4-2 10-2 15 1l146 101m11-5l40-210c1-6 5-10 10-12 5-2 11-1 15 3l138 130m13-5l35-178c1-5 5-10 10-12 5-1 11 0 15 4l134 140m-426-220l118-150c3-4 9-6 14-5 5 1 10 5 11 10l70 202c-146-53-299-79-453-76m225 16l-58-171c-2-5-7-9-12-10-6-1-11 2-15 6l-113 159m545 400c5 0 8-3 8-8m-15 0c0 5 3 8 7 8m0-16c-4 0-7 4-7 8m15 0c0-4-3-8-8-8m113-376c5 0 8-4 8-8m-15 0c0 4 3 8 7 8m0-16c-4 0-7 4-7 8m15 0c0-4-4-8-8-8m-655 126c5 0 8-4 8-8m-15 0c0 4 3 8 7 8m0-16c-4 0-7 4-7 8m15 0c0-4-4-8-8-8" horiz-adv-x="1457" />

<glyph glyph-name="explore-programs" unicode="&#xe822;" d="M721 172v-179m0 714v-57m0-179v-120m-184-173c5-4 11-6 18-6h405v179h-405c-7 0-13-2-18-6l-82-60c-7-5-12-14-12-24 0-9 5-18 12-24l82-59z m399 299c-5-4-12-6-18-6h-406v179h406c7 0 13-2 18-6l81-60c8-5 13-14 13-24 0-10-5-18-13-24l-81-59z" horiz-adv-x="1457" />

<glyph glyph-name="hike-and-bike" unicode="&#xe823;" d="M747 538c43 0 78 34 78 77 0 43-35 78-78 78-42 0-77-35-77-78 0-43 35-77 77-77z m147-172c-97 14-118 53-144 102l-8 15c-10 16-28 26-47 23-19-2-35-16-39-35l-109-434c-6-25 9-51 34-57 3-1 7-1 11-1 22 0 40 14 45 35l39 155c28-42 36-69 57-155 5-20 24-35 45-35 4 0 8 0 11 1 12 3 23 10 29 21 7 11 9 23 6 35-32 133-43 151-119 250l15 60c44-41 100-67 160-72 17-3 34 4 45 17 10 13 13 31 6 47-6 15-21 26-37 28l0 0z m117 47l-108-434m-429 320c-9 2-18 8-23 16-5 9-6 19-4 28l38 152c5 19 24 31 43 26l36-8c10-2 18-8 23-16 5-8 6-18 4-28l-38-152c-5-19-24-31-43-26l-36 8z m1 158l107-24" horiz-adv-x="1457" />

<glyph glyph-name="learn-ecology" unicode="&#xe824;" d="M845 447c5 2 10 2 15-1 5-4 7-9 7-14-5-70-31-253-164-253-63 0-115 51-115 115 0 63 52 114 115 114 49 3 97 16 142 39z m-257-306c20 80 77 146 153 178m-215 326h357c9 0 16-7 16-16v-46m62 0v109c0 8-7 15-15 15h-420c-34 0-62-28-62-62 0-34 28-62 62-62h451c8 0 15-7 15-16v-559c0-8-7-15-15-15h-451c-34 0-62 28-62 62v590" horiz-adv-x="1457" />

<glyph glyph-name="get-involved" unicode="&#xe825;" d="M557 458c0-17 14-31 31-31h31l80-80c2-2 5-3 8-2 3 1 5 4 5 7v75h217c17 0 31 14 31 31v217c0 17-14 31-31 31h-341c-17 0-31-14-31-31v-217z m93 155h216m-216-93h216m-356-295c39 0 70 31 70 70 0 38-31 70-70 70-38 0-70-32-70-70 0-39 31-70 70-70z m99-71c-38 35-90 48-139 34s-87-54-100-103h187m388 140c38 0 70 31 70 70 0 38-32 70-70 70-39 0-70-32-70-70 0-39 31-70 70-70z m-99-71c38 35 90 48 139 34 49-15 87-54 100-103h-187m-171 47c39 0 70 31 70 70 0 38-31 69-70 69-38 0-69-31-69-69 0-39 31-70 69-70z m140-140c-16 64-74 109-139 109-66 0-124-45-140-109h279z" horiz-adv-x="1457" />

<glyph glyph-name="art-and-culture" unicode="&#xe826;" d="M371 707c228-86 472-123 715-109m-715-419c0 69 56 124 125 124h124c69 0 124-55 124-124l0 0c0-68-55-124-124-124h-124c-69 0-125 56-125 124l0 0z m218-124c-69 0-124 56-124 124l0 0c0 69 55 124 124 125m-62-1c68 0 124-55 124-124l0 0c0-68-56-124-124-124m124 244v51c0 9-7 16-16 16h-155c-8 0-15-7-15-16v-51m0-240v-51c0-8 7-15 15-15h155c9 0 16 7 16 15v51m155 193c0 45 37 83 83 83h83c46 0 83-38 83-83v-21c0-46-37-83-83-83h-83c-46 0-83 37-83 83v21z m187 80v49c0 9-7 16-16 16h-93c-9 0-16-7-16-16v-49m0-181v-50c0-8 7-15 16-15h93c9 0 16 7 16 15v50m-590 545c2-25 8-78 11-112 1-6 5-11 11-13 5-2 12 0 16 4l83 83m65-17c5-24 17-66 25-94 2-5 6-9 12-11 5-1 11 1 15 5l70 76m42-7c11-26 30-69 42-95 2-6 7-9 12-10 6 0 11 2 14 7l63 86m83-2c11-27 30-67 43-93 2-6 8-9 14-9 6 0 11 3 14 8l48 96m-528 50v-282m372 229v-198" horiz-adv-x="1457" />

<glyph glyph-name="join-activities" unicode="&#xe827;" d="M558 241c51 0 93 42 93 93 0 52-42 94-93 94-52 0-93-42-93-94 0-51 41-93 93-93z m-81 141c45-47 114-60 173-35m362-110c-12 20-18 44-17 68v27c0 53-43 96-96 96-52 0-95-43-95-96v-27c1-24-5-48-18-68m18 80c37 0 71 16 95 43 24-27 59-43 96-43m-179 0c4-43 40-76 83-76 44 0 80 33 84 76m-394-110c-46 9-93-2-129-32-37-29-57-73-57-120h186m279 152c46 9 93-2 130-32 36-29 57-73 57-120h-187m-139 47c38 0 69 31 69 69 0 39-31 70-69 70-39 0-70-31-70-70 0-38 31-69 70-69z m93-109c-9 45-48 77-93 77-46 0-85-32-94-77h187z m-93 466c68 0 124 55 124 124 0 69-56 124-124 124-69 0-125-55-125-124 0-69 56-124 125-124z m0 186v-124m-63 62h125" horiz-adv-x="1457" />

<glyph glyph-name="educational-programs" unicode="&#xe828;" d="M741 544l189 72c3 1 5 5 5 8 0 4-2 7-5 8l-189 73c-8 3-17 3-25 0l-209-81 209-80c8-3 17-3 25 0z m141-56v110m-307 0v-110m-68 136v-119m324-171c47 0 85 38 85 85 0 48-38 86-85 86-47 0-85-38-85-86 0-47 38-85 85-85z m-205 0c47 0 85 38 85 85 0 48-38 86-85 86-47 0-85-38-85-86 0-47 38-85 85-85z m0 102c-9 0-17-7-17-17m34 0c0 10-7 17-17 17m0-34c10 0 17 8 17 17m-34 0c0-9 8-17 17-17m205 34c-9 0-17-7-17-17m34 0c0 10-8 17-17 17m0-34c9 0 17 8 17 17m-34 0c0-9 7-17 17-17m-176-63l74-73 73 73m114-48v-110c0-104-84-188-187-188-104 0-188 84-188 188v110m358 77h17c57 0 103-46 103-102v-69c0-45-18-88-50-120-32-32-76-50-121-50h-12m-278 341h-17c-57 0-102-46-102-102v-69c0-94 76-170 170-170h12" horiz-adv-x="1457" />

<glyph glyph-name="amenities" unicode="&#xe829;" d="M729 693c67 0 133-19 191-55 148-95 159-289 41-431-68-81-142-156-222-225-6-5-15-5-20 0-81 69-155 144-223 225-118 142-107 336 42 431 57 36 123 55 191 55z m-118-380c35 0 63 28 63 62 0 35-28 63-63 63-34 0-62-28-62-63 0-34 28-62 62-62z m235 0c34 0 62 28 62 62 0 35-28 63-62 63-35 0-63-28-63-63 0-34 28-62 63-62z m-133 62l89 120-120-42-71-78 102 0-51 125m184-125l-52 140c-1 3-1 5 0 7 1 2 3 3 5 4l23 5m-179-31h46" horiz-adv-x="1457" />

<glyph glyph-name="current-conditions" unicode="&#xe82a;" d="M865 338c0 10-4 19-11 26-7 7-16 11-26 10-10 1-20-3-27-10-7-7-11-16-11-26 0-26 22-59 38-75 16 16 37 45 37 75z m0 55c0 19-10 38-27 48 5 14 2 29-7 41-9 11-24 17-39 16-12 34-47 55-82 49-36-7-62-37-62-74-38 0-69-30-69-68 0-38 31-68 69-68l105 0m75-12c7 0 12 5 12 12 0 7-5 13-12 13-7 0-13-6-13-13 0-7 6-12 13-12z m116-196l-437 0m222-60l0 0c4 0 8-3 8-8l0 0c0-5-4-9-8-9l0 0c-5 0-9 4-9 9l0 0c0 5 4 8 9 8m221 204v-212c0-38-31-68-68-68h-68l-238 0c-38 0-68 30-68 68v578c0 38 30 68 68 68h306c37 0 68-30 68-68l0-366 0 0z" horiz-adv-x="1457" />

<glyph glyph-name="faqs" unicode="&#xe82b;" d="M4551 1564c-79 0-143-64-143-143s64-142 143-142c79 0 143 63 143 142s-64 143-143 143z m-39-203l-24 75 63 46 63-46-24-75h-78l0 0z m94 192l-55-23-55 23m-53-38l5-60-39-46m20-62l59-13 30-52m66 0l30 52 59 13m20 63l-39 45 5 60m-108 15v-48m63-46l40 19m-64-94l25-27m-103 27l-24-27m-40 121l40-19m-560 311c2-1 4-3 6-3 2 0 4 2 5 3l91 155c2 2 1 5-1 7l-91 82c-3 2-6 2-8 0l-92-82c-2-2-3-5-1-7l91-155z m-92 159h195m-97-162v249m-162-286c0 0 13 38 44 38 26 0 71-37 99-20m779 107v83c0 4-2 8-6 11-3 2-8 2-11 1-43-18-135-18-177 0-4 1-8 1-12-2-3-2-5-6-5-10v-84c0-68 80-124 105-124 25 0 106 56 106 125z m-75 108v40c0 5-2 8-5 11-4 2-8 2-12 1-43-17-134-17-177 0-4 1-8 1-11-1-4-3-6-7-6-11v-83c0-40 27-75 55-98m162-5c0-20-16-37-37-37-21 0-37 17-37 37m62 56c0 10 8 19 19 19 10 0 18-9 18-19m-124 0c0 10 8 19 19 19 10 0 18-9 18-19m-187-175c-5 13 0 29 13 36 3 2 5 7 3 11l-4 10c-5 10-18 14-28 9l-205-87c-11-4-17-16-13-27l4-9c2-5 6-7 10-6 14 5 30-2 36-15 6-14 0-30-14-36-3-3-5-7-3-11l4-10c5-10 18-14 28-9l205 87c11 4 17 15 13 26l-4 10c-2 4-6 7-10 6-14-4-29 2-35 15z m-90 34l55-121m-119 43l43 19m-24-59l44 19m-3401-1112l96 96m43-18c35 0 62 28 62 62s-27 62-62 62c-34 0-62-27-62-62s28-62 62-62z m-109-418l65-66m45-105c34 0 62 27 62 62 0 34-28 62-62 62-35 0-62-28-62-62 0-34 27-62 62-62z m-451 511l-96 96m-43-18c34 0 62 28 62 62s-28 62-62 62c-34 0-62-27-62-62s28-62 62-62z m110-418l-66-66m-44-105c34 0 62 27 62 62 0 34-28 62-62 62-35 0-62-28-62-62-1-34 27-62 62-62z m434 372h93m62-62c35 0 62 28 62 62 0 34-27 62-62 62-34 0-62-28-62-62 0-34 28-62 62-62z m-434 62h-93m-62-62c34 0 62 28 62 62 0 34-28 62-62 62-34 0-62-28-62-62 0-34 28-62 62-62z m295-109c4 0 8-3 8-7s-4-8-8-8c-4 0-8 3-8 8 0 2 1 4 2 5 2 2 4 2 6 2m-93 218c0 46 34 86 80 92 46 6 90-22 103-67 12-45-10-92-53-111-22-10-37-32-37-57v-12" horiz-adv-x="1457" />

<glyph glyph-name="latest-news" unicode="&#xe82c;" d="M896 708c-49 0-97-20-131-56-35-35-54-83-53-133-2-34 7-69 24-99l-55-116 116 55c68-42 155-36 217 14 63 50 86 134 60 209-27 76-98 126-178 126l0 0z m2-249c5 0 8-3 8-7 0-5-3-8-8-8-4 0-7 3-7 8 0 4 3 7 7 7m0 47v93m-31-326v-279m-497 0v559c0 34 28 62 62 62h233m-15-124h-280m233-358c39 0 70 32 70 70 0 39-31 70-70 70-38 0-70-31-70-70 0-38 32-70 70-70z m140-139c-16 64-74 108-140 108-66 0-123-44-139-108m108 559h78" horiz-adv-x="1457" />

<glyph glyph-name="parking-and-maps" unicode="&#xe82d;" d="M915 601v-413m-182 283v258m26-432l148-107c5-3 11-3 15 0l170 121c3 3 5 7 5 11v384c0 5-3 9-7 12-4 2-10 2-14-1l-161-116-175 125c-4 3-10 3-15 0l-169-121c-3-2-5-6-5-10v-124m-122-465v-26c0-5-4-9-8-9h-35c-5 0-9 4-9 9v26m294 0v-26c0-5-3-9-8-9h-35c-5 0-9 4-9 9v26m61 0c5 0 9 4 9 9v57c0 2-1 4-3 6l-32 32h-259l-32-32c-2-2-3-4-3-6v-57c0-5 4-9 9-9h311z m-174 190h-71c-3 0-7-2-8-5l-32-81m-35-69h78m173 0h78m-82 231c38 0 69 31 69 69 0 39-31 70-69 70-38 0-69-31-69-70 0-38 31-69 69-69z m-21 32v75h21c12 0 21-10 21-22 0-11-9-21-21-21h-21m21 110c-58 0-104-46-104-104 0-46 67-136 94-170 2-3 6-5 10-5 4 0 7 2 10 5 26 34 94 124 94 170 0 58-47 104-104 104z m3944-168c-79 0-143-64-143-142s64-143 143-143c79 0 143 64 143 143s-64 142-143 142z m-39-203l-24 75 63 46 63-46-24-75h-78l0 0z m94 192l-55-23-55 23m-53-38l5-60-39-45m20-62l59-14 30-52m66 1l30 51 59 14m20 62l-39 45 5 60m-108 15v-48m63-46l40 19m-64-94l25-27m-103 27l-24-27m-40 121l40-19m-560 312c2-2 4-3 6-3 2 0 4 1 5 3l91 154c2 2 1 6-1 8l-91 82c-3 2-6 2-8 0l-92-82c-2-2-3-6-1-8l91-154z m-92 158h195m-97-161v248m-162-285c0 0 13 37 44 37 26 0 71-36 99-20m779 107v84c0 4-2 8-6 10-3 2-8 3-11 1-43-17-135-17-177 0-4 2-8 1-12-1-3-3-5-6-5-11v-83c0-69 80-124 105-124 25 0 106 56 106 124z m-75 108v41c0 4-2 8-5 10-4 2-8 3-12 1-43-17-134-17-177 0-4 2-8 1-11-1-4-2-6-6-6-10v-84c0-39 27-75 55-98m162-4c0-21-16-38-37-38-21 0-37 17-37 38m62 55c0 11 8 19 19 19 10 0 18-8 18-19m-124 0c0 11 8 19 19 19 10 0 18-8 18-19m-187-175c-5 14 0 29 13 36 3 3 5 7 3 11l-4 10c-5 10-18 14-28 9l-205-87c-11-4-17-15-13-26l4-10c2-4 6-7 10-6 14 6 30-1 36-15 6-14 0-29-14-36-3-2-5-7-3-11l4-10c5-10 18-14 28-9l205 87c11 4 17 16 13 27l-4 9c-2 5-6 7-10 6-14-4-29 2-35 15z m-90 35l55-122m-119 43l43 19m-24-59l44 19" horiz-adv-x="1457" />

<glyph glyph-name="things-to-do" unicode="&#xe82e;" d="M837 289h202c17 0 31 14 31 31v342c0 17-14 31-31 31h-341c-18 0-31-14-31-31v-233m341-140v-171m-46 513l46-47m0 47l-46-47m-451-171c34 0 62 28 62 62 0 35-28 63-62 63-34 0-62-28-62-63 0-34 28-62 62-62z m-62-170v-233c0-17 14-31 31-31h62c17 0 31 14 31 31v233m156 217v-128m0-56v-297m-280 168c-1-17-15-31-32-30-17 1-31 15-30 32v109c0 45 32 84 76 93h100c27-1 51-14 69-35 5-7 13-11 22-11 9-1 18 2 24 9l13 13c12 11 32 11 44-1 12-12 12-31 0-43l-13-13c-25-26-63-35-97-21m263 320l-18-14c-12-11-19-27-17-43 2-16 13-30 28-37l0 0c15-7 25-20 27-37 2-16-4-32-16-42l-35-29" horiz-adv-x="1457" />

<glyph glyph-name="trail-rules" unicode="&#xe82f;" d="M371 645c0 34 28 62 63 62h590c34 0 62-28 62-62v-590c0-34-28-62-62-62h-590c-35 0-63 28-63 62v590z m140-155l47-47 124 124m-171-388l47-46 124 124m93 202h186m-186-280h186" horiz-adv-x="1457" />

<glyph glyph-name="upcoming-events" unicode="&#xe830;" d="M899-6c103 0 187 83 187 186s-84 186-187 186c-102 0-186-83-186-186s84-186 186-186z m63 186h-63v93m-248-124h-248c-18 0-31 14-31 31v435c0 17 13 31 31 31h559c17 0 31-14 31-31v-202m-466 295v-155m310 155v-155m-466-62h622" horiz-adv-x="1457" />

<glyph glyph-name="trash_collection" unicode="&#xe831;" d="M1041 416v250m-250-343l-28-316c-2-16-16-28-32-28h-192c-16 0-30 12-32 28l-28 316m-63 0h437m-280-94v-156m61 156v-156m63 156v-156m344 561l-228 56c-24 4-49 1-72-9l-278-118c-4-2-7-6-9-10-1-4 0-9 2-13 23-34 64-49 103-37l171 58c20 8 40 9 61 5l63-10-147-89c-14-8-24-24-23-41 0-17 10-33 25-40 14-9 32-7 47 1l93 56c20 11 41 17 64 17h128" horiz-adv-x="1457" />

<glyph glyph-name="plant_removal" unicode="&#xe832;" d="M353 481l168-201m146-107l-8 56c-2 8-6 15-10 22l-58 69c-4 6-12 6-18 1l-102-84c-5-4-5-13-1-18l57-69c6-6 13-11 20-16l19-8m-283 297l141 118m300-402c-18 18-44 28-73 28-57 0-102-46-102-103h618c0 57-46 103-103 103-28 0-54-10-74-28m-281-32c0 0 31 103 147 103 114 0 147-103 147-103m-59 324h50c76 0 145 49 167 122l13 37c2 4 2 10-1 13-3 4-7 6-12 6h-28c-76 0-144-49-167-122l-22-56z m-44-227l-29 389c0 8-7 14-15 14s-16-6-16-14l-29-389m-42 227h-50c-76 0-145 49-168 122l-12 37c-2 4-2 10 1 13 3 4 7 6 11 6h29c76 0 144-49 167-122l22-56z" horiz-adv-x="1457" />

<glyph glyph-name="mulching" unicode="&#xe833;" d="M703 171c26 0 47 25 47 55s-21 54-47 54-47-24-47-54 21-55 47-55z m-333 0c26 0 47 25 47 55s-21 54-47 54-47-24-47-54 20-55 47-55z m291 28h-125c-13 0-25 12-25 27v54h190m-117 1h119v192c0 16-10 27-24 27h-96c-13 0-24-13-24-27v-54m-70-138h-215c-13 0-24 13-24 28v27h239m0 54h-166c-26 0-47-24-47-54m225 83h72c7 0 11-6 11-15v-123h-95v123c0 7 5 15 12 15z m202-29h47v83h-47m48 0l48 27v-137l-48 27m48 110h60c7 0 11-6 11-14v-110c0-7-6-15-11-15h-60m-239-80v-82m49 82v-82m351 200v-10c3 2 3 7 0 10z m-4 1c-2 0-3 0-5-1l9-2c0 3-1 3-4 3z m-6-6c0-1 0-4 1-4v10c0-3-1-4-1-6z m10-5l-9 1c2-3 6-4 9-1z m47-53v-10c2 3 2 7 0 10z m-4 1c-2 0-3 0-4-1l8-2c-1 3-3 3-4 3z m-7-6c0-1 0-4 1-4v10c0-1-1-4-1-6z m10-5l-9 1c3-3 6-4 9-1z m47-53v-10c1 3 1 7 0 10z m-4 3c-2 0-3 0-5-2l9-1c-2 1-3 1-4 3z m-8-7c0-2 0-5 2-5v10c0-1 0-4-2-5z m10-6l-8 1c3-3 7-4 8-1z m-14 137v-10c2 3 2 7 0 10z m-4 3c-2 0-3 0-4-2l8-1c-1 1-3 3-4 3z m-7-6c0-1 0-4 1-4v10c0-3-1-4-1-6z m10-6l-9 2c3-4 6-4 9-2z m47-54v-10c1 3 1 7 0 10z m-4 3c-2 0-3 0-5-1l9-2c-2 2-3 3-4 3z m-6-6c0-1 0-4 1-4v10c-1-3-1-4-1-6z m8-5l-8 1c3-4 7-4 8-1z m32 74v-10c1 3 1 7 0 10z m-4 3c-2 0-3 0-5-2l9-1c-2 1-3 3-4 3z m-6-7c0-2 0-5 1-5v10c-1-1-1-3-1-5z m8-6l-8 1c3-3 7-3 8-1z m-22-200l7-6c-2 4-5 6-7 6z m-5-3c-1-1-1-3-1-6l4 9c-1 0-3-2-3-3z m2-10c1-1 3-1 4-1l-7 5c0-1 1-3 3-4z m4 0c3 0 6 4 4 9l-4-9z m36 90l7-6c-2 3-4 6-7 6z m-5-3c-1-1-1-3-1-6l4 9c-1-1-1-1-3-3z m2-10c1-1 3-1 4-1l-7 5c0-1 1-2 3-4z m4-1c3 0 6 4 4 8l-4-8z m73 167l7-6c-1 3-4 6-7 6z m-4-3c-2-1-2-3-2-6l5 9c0 0-2-2-3-3z m1-10c2-1 3-1 4-1l-7 5c0-1 2-3 3-4z m4-1c3 0 6 4 5 8l-5-8z m-38-63l7-6c-1 4-4 7-7 6z m-3-12c1-1 3-1 4-1l-7 6c0-3 2-5 3-5z m4-1c3 0 6 4 5 8l-5-8z m-5 10c-2-2-2-3-2-4l4 8c0-1-1-3-2-4z" horiz-adv-x="1457" />

<glyph glyph-name="seed_collection" unicode="&#xe834;" d="M539 271c-5-1-9-1-12 0-4 2-7 5-8 9l-70 190c-6 16 2 34 18 40l396 146 36 21c8 4 17 6 27 3 8-3 15-10 18-19l125-338c2-9 2-19-3-27-5-9-13-13-22-16l-41-6-279-103c-4-1-8-1-11 0-4 2-7 5-9 9l-21 59-59-22c-4-1-8-1-11 0-4 2-7 4-9 9l-21 58-44-13z m-145-267l7-7c0 3-2 7-7 7z m-5-3c-2-1-3-2-3-5l7 7c0 1-3 0-4-2z m0-11c1-1 2-3 5-3l-7 7c0 0 0-3 2-4z m5-1c5 0 7 2 7 7l-7-7z m95 15l7-7c0 3-3 7-7 7z m-6-3c-2-1-3-2-3-5l7 7c-1 1-3 0-4-2z m0-11c1-1 3-3 6-3l-8 7c-1 0 0-3 2-4z m6-1c4 0 7 2 7 7l-7-7z m92 15l8-7c1 3-3 7-8 7z m-5-3c-2-1-3-2-3-5l7 7c0 1-3 0-4-2z m0-11c1-1 3-3 5-3l-7 7c0 0 0-3 2-4z m5-1c5 0 8 2 8 7l-8-7z m-124 92l7-7c0 5-3 7-7 7z m-6-1c-1-1-2-3-2-6l7 7c-2 0-3 0-5-1z m0-11c2-2 3-3 6-3l-7 7c-1-2 0-3 1-4z m6-3c4 0 7 3 7 7l-7-7z m93 15l7-7c2 5-3 7-7 7z m-4-1c-3-1-3-4-3-6l7 7c-1 0-3 0-4-1z m0-11c1-2 3-3 5-3l-8 8c0-3 0-4 3-5z m4-3c4 0 7 3 7 7l-7-7z m-30 94l7-7c0 4-3 7-7 7z m-6-3c-1-1-3-3-3-6l8 8c-2 1-3 0-5-2z m0-10c2-1 3-3 6-3l-7 7c-2-1 0-2 1-4z m6-3c4 0 7 3 7 7l-7-7z m354 403c6 3 12 2 16-1s7-9 7-15c-4-60-27-197-131-197-50 2-90 42-90 92s40 91 90 91c37 3 74 13 108 30z m-201-244c16 64 61 117 123 143" horiz-adv-x="1457" />

<glyph glyph-name="corporate-partnership" unicode="&#xe835;" d="M1002 545c-55 0-100-45-100-100 56 0 100 45 100 100z m-73-32c13 38 5 83-26 114-32-31-40-76-26-115m25-67c0 55-44 100-100 100 0-55 45-100 100-100z m-5 262c-49 0-97-20-131-55-35-36-54-84-53-133-1-35 7-69 24-99l-55-117 116 56c68-42 155-37 217 13 63 50 87 134 60 209-27 76-98 126-178 126l0 0z m-29-435v-264c0-8-7-15-15-15h-264v373c0 17 14 31 31 31h31m31-404v77c0 9 7 16 16 16h62c8 0 15-7 15-16v-77m93 248h-155m-248 311h-94m156-93h-156m497-311h-93m-186 466v93m31-714h-233c-9 0-16 7-16 15v675c0 6 3 10 7 13 5 3 10 4 15 2l258-115v-186" horiz-adv-x="1457" />
</font>
</defs>
</svg>
